[Login] or [Signup]
Login
Username:
Password:
[Signup]
[Recover Account]


Poll


You must be logged in to view polls



Torrent Details For "Coffee with D (2017) 720p Untouched Web-HD AAC Esub - Hon3y"

Coffee with D (2017) 720p Untouched Web-HD AAC Esub - Hon3y

Download this torrent | Magnet Download
Health:
Seeds: 72
Leechers: 99
Completed: 102 
Last Checked: 04-05-2017 05:23:01
External Torrent
Update Stats


Poster


iMDB
Imdb Picture Title: Coffee with D
Year: 2017
Runtime: 123 minutes
Votes: 209
Rating: 4.4/10
Country: India
All Genres: Comedy
Plot Outline: A celebrated journalist interviews one of the world's most dreaded terrorists, "D".
Director: Vishal Mishra
Writing By: Aabhar Dadhich,Aabhar Dadhich,Vishal Mishra,
Produced By: Ankit Chandiramani,Vinod Ramani,Mohan Sachdev,Manan Sampat,Salman m Shaikh,
Music: Dhruv Dhalla Superbia
Plot:

A celebrated journalist interviews one of the world's most dreaded terrorists, "D".

- Written by Kiran Mascarenhas
Cast:
Sunil Grover as Arnab
Zakir Hussain as D
Dipannita Sharma as Neha
Rajesh Sharma as Channel owner
Anjana Sukhani as Parul


Details
Name:Coffee with D (2017) 720p Untouched Web-HD AAC Esub - Hon3y
Description:
Coffee with D (2017) 720p Untouched Web-HD AVC AAC Esub - Hon3yHD [Exclsuive]

Format                      : Matroska
File size                   : 2.38 GiB
Duration                    : 2 h 0 min
Overall bit rate            : 2 818 kb/s

Video
ID                          : 1
Format                      : AVC
Format/Info                 : Advanced Video Codec
Format profile              : [email protected]
Format settings, CABAC      : Yes
Format settings, ReFrames   : 3 frames
Codec ID                    : V_MPEG4/ISO/AVC
Duration                    : 2 h 0 min
Bit rate                    : 2 688 kb/s
Width                       : 1 280 pixels
Height                      : 550 pixels
Display aspect ratio        : 2.35:1
Frame rate mode             : Constant
Frame rate                  : 24.000 FPS
Stream size                 : 2.27 GiB (95%)

Audio
ID                          : 2
Format                      : AAC
Format/Info                 : Advanced Audio Codec
Format profile              : LC
Codec ID                    : A_AAC
Duration                    : 2 h 0 min
Bit rate                    : 128 kb/s
Channel(s)                  : 2 channels
Channel positions           : Front: L R
Sampling rate               : 44.1 kHz
Frame rate                  : 43.066 FPS (1024 spf)
Stream size                 : 110 MiB (5%)


                     

Category:Movies > Bollywood
Lang:Hindi
Total Size:2.38 GB
Info Hash:da8258128cb02c128c1d480e4b70d6159135c01d
Added By:Hon3y
Date Added:03-05-2017 21:51:57
Views:96
Hits:46

Ratings:Not Yet Rated (Log in to rate it)


Tracker:
udp://tracker.coppersurfer.tk:6969/announce


File List: 


Comments

No comments still posted

Powered by 10 Hamsters v2-svn -|- Page Generated In 1.715920 secs.
-|- RSS Feed -|- Feed Info
Theme By: Nikkbu