[Login] or [Signup]
Login
Username:
Password:
[Signup]
[Recover Account]


Poll


You must be logged in to view polls



Torrent Details For "Coffee with D 2017 1080p Untouched Web-HD AAC Esub - Hon3y"

Coffee with D 2017 1080p Untouched Web-HD AAC Esub - Hon3y

Download this torrent | Magnet Download
Health:
Seeds: 77
Leechers: 123
Completed: 94 
Last Checked: 04-05-2017 05:22:45
External Torrent
Update Stats


Poster


iMDB
Imdb Picture Title: Coffee with D
Year: 2017
Runtime: 123 minutes
Votes: 209
Rating: 4.4/10
Country: India
All Genres: Comedy
Plot Outline: A celebrated journalist interviews one of the world's most dreaded terrorists, "D".
Director: Vishal Mishra
Writing By: Aabhar Dadhich,Aabhar Dadhich,Vishal Mishra,
Produced By: Ankit Chandiramani,Vinod Ramani,Mohan Sachdev,Manan Sampat,Salman m Shaikh,
Music: Dhruv Dhalla Superbia
Plot:

A celebrated journalist interviews one of the world's most dreaded terrorists, "D".

- Written by Kiran Mascarenhas
Cast:
Sunil Grover as Arnab
Zakir Hussain as D
Dipannita Sharma as Neha
Rajesh Sharma as Channel owner
Anjana Sukhani as Parul


Details
Name:Coffee with D 2017 1080p Untouched Web-HD AAC Esub - Hon3y
Description:
Coffee with D (2017) 1080p Untouched Web-HD AVC AAC Esub - Hon3yHD [Exclsuive]

Format                      : Matroska
File size                   : 3.47 GiB
Duration                    : 2 h 0 min
Overall bit rate            : 4 115 kb/s

Video
ID                          : 1
Format                      : AVC
Format/Info                 : Advanced Video Codec
Format profile              : [email protected]
Format settings, CABAC      : Yes
Format settings, ReFrames   : 3 frames
Codec ID                    : V_MPEG4/ISO/AVC
Duration                    : 2 h 0 min
Bit rate                    : 3 985 kb/s
Width                       : 1 920 pixels
Height                      : 824 pixels
Display aspect ratio        : 2.35:1
Frame rate mode             : Constant
Frame rate                  : 24.000 FPS
Stream size                 : 3.36 GiB (97%)

Audio
ID                          : 2
Format                      : AAC
Format/Info                 : Advanced Audio Codec
Format profile              : LC
Codec ID                    : A_AAC
Duration                    : 2 h 0 min
Bit rate                    : 128 kb/s
Channel(s)                  : 2 channels
Channel positions           : Front: L R
Sampling rate               : 44.1 kHz
Frame rate                  : 43.066 FPS (1024 spf)
Stream size                 : 110 MiB (3%)


                     
Category:Movies > Bollywood
Lang:Hindi
Total Size:3.47 GB
Info Hash:b61cfb7b1bc6f83b9813e9c353fa25f3298292bf
Added By:Hon3y
Date Added:03-05-2017 22:11:19
Views:91
Hits:49

Ratings:Not Yet Rated (Log in to rate it)


Tracker:
udp://tracker.coppersurfer.tk:6969/announce


File List: 


Comments

No comments still posted

Powered by 10 Hamsters v2-svn -|- Page Generated In 1.801260 secs.
-|- RSS Feed -|- Feed Info
Theme By: Nikkbu