[Login] or [Signup]
Login
Username:
Password:
[Signup]
[Recover Account]


Poll


You must be logged in to view polls



Torrent Details For "xXx.Return.of.Xander.Cage.2017.720p.BluRay.H264.AAC-RARBG"

xXx.Return.of.Xander.Cage.2017.720p.BluRay.H264.AAC-RARBG

Download this torrent | Magnet Download
Health:
Seeds: 174
Leechers: 17
Completed: 123,110 
Last Checked: 03-10-2017 18:10:55
External Torrent
Update Stats


Poster


iMDB
Imdb Picture Title: xXx: Return of Xander Cage
Year: 2017
Runtime: 107 minutes
Votes: 31604
Rating: 5.4/10
Language: English
Country: USA
All Genres: Action, Adventure, Thriller
Plot Outline: Xander Cage is left for dead after an incident, though he secretly returns to action for a new, tough assignment with his handler Augustus Gibbons.
Tagline: There are no more patriots, just rebels and tyrants.
Director: D.J. Caruso
Writing By: Rich Wilkes,F. Scott Frazier,
Produced By: Gloria S. Borders,Vin Diesel,Scott Hemming,Ric Kidney,Jeff Kirschenbaum,Marla Levine,Lyn Lucibello,Joe Roth,Zack Roth,Vince Totino,Samantha Vincent,
Music: Robert Lydecker Brian Tyler
Plot:

Extreme athlete turned government operative Xander Cage (Vin Diesel) comes out of self-imposed exile, thought to be long dead, and is set on a collision course with deadly alpha warrior Xiang (Donnie Yen) and his team in a race to recover a sinister and seemingly unstoppable weapon known as Pandora's Box. Recruiting an all-new group of thrill-seeking cohorts, Xander finds himself enmeshed in a deadly conspiracy that points to collusion at the highest levels of world governments.

- Written by Ohad Gabay

Xander Cage is left for dead after an incident, though he secretly returns to action for a new, tough assignment with his handler Augustus Gibbons.

- Written by Anonymous
Cast:
Vin Diesel as Xander Cage
Donnie Yen as Xiang
Deepika Padukone as Serena Unger
Kris Wu as Nicks
Ruby Rose as Adele Wolff
Tony Jaa as Talon
Nina Dobrev as Becky Clearidge
Rory McCann as Tennyson Torch
Toni Collette as Jane Marke
Samuel L. Jackson as Augustus Gibbons
Trailers:
Opens Thursday Night
Trailer #1
Teaser


Details
Name:xXx.Return.of.Xander.Cage.2017.720p.BluRay.H264.AAC-RARBG
Description:
MediaInfo

Video
ID                                       : 1
Format                                   : AVC
Format/Info                              : Advanced Video Codec
Format profile                           : [email protected]
Format settings, CABAC                   : Yes
Format settings, ReFrames                : 4 frames
Codec ID                                 : avc1
Codec ID/Info                            : Advanced Video Coding
Duration                                 : 1h 46mn
Bit rate                                 : 1 500 Kbps
Width                                    : 1 280 pixels
Height                                   : 536 pixels
Display aspect ratio                     : 2.40:1
Frame rate mode                          : Constant
Frame rate                               : 23.976 (23976/1000) fps
Color space                              : YUV
Chroma subsampling                       : 4:2:0
Bit depth                                : 8 bits
Scan type                                : Progressive
Bits/(Pixel*Frame)                       : 0.091
Stream size                              : 1.12 GiB (87%)
Writing library                          : x264 core 148 r2597M e86f3a1
Encoding settings                        : cabac=1 / ref=4 / deblock=1:-1:-1 / analyse=0x3:0x113 / me=umh / subme=9 / psy=1 / psy_rd=1.00:0.15 / mixed_ref=1 / me_range=24 / chroma_me=1 / trellis=2 / 8x8dct=1 / cqm=0 / deadzone=21,11 / fast_pskip=1 / chroma_qp_offset=-3 / threads=32 / lookahead_threads=4 / sliced_threads=0 / nr=0 / decimate=1 / interlaced=0 / bluray_compat=0 / constrained_intra=0 / bframes=3 / b_pyramid=2 / b_adapt=2 / b_bias=0 / direct=3 / weightb=1 / open_gop=0 / weightp=2 / keyint=250 / keyint_min=25 / scenecut=40 / intra_refresh=0 / rc_lookahead=50 / rc=2pass / mbtree=1 / bitrate=1500 / ratetol=1.0 / qcomp=0.60 / qpmin=0 / qpmax=69 / qpstep=4 / cplxblur=20.0 / qblur=0.5 / vbv_maxrate=31250 / vbv_bufsize=31250 / nal_hrd=none / filler=0 / ip_ratio=1.40 / aq=3:1.00
Encoded date                             : UTC 2017-05-04 00:01:20
Tagged date                              : UTC 2017-05-04 00:01:20

Audio
ID                                       : 2
Format                                   : AAC
Format/Info                              : Advanced Audio Codec
Format profile                           : LC
Codec ID                                 : 40
Duration                                 : 1h 46mn
Duration_LastFrame                       : 32ms
Bit rate mode                            : Constant
Bit rate                                 : 224 Kbps
Channel(s)                               : 2 channels
Channel(s)_Original                      : 6 channels
Channel positions                        : Front: L C R, Side: L R, LFE
Sampling rate                            : 48.0 KHz
Frame rate                               : 46.875 fps (1024 spf)
Compression mode                         : Lossy
Stream size                              : 171 MiB (13%)
Language                                 : English
Default                                  : Yes
Alternate group                          : 1
Encoded date                             : UTC 2017-05-04 00:01:20
Tagged date                              : UTC 2017-05-04 00:01:20



 
 
 
 
 
Category:Movies > 720P Bluray
Lang:English  English
Total Size:1.29 GB
Info Hash:c82eaf5e8c0480e6789b16e048e8ea0a07c0a93b
Added By:Unknown
Date Added:03-05-2017 23:06:46
Views:128
Hits:64

Ratings:Not Yet Rated (Log in to rate it)


Tracker:
http://tracker.trackerfix.com:80/announce


File List: 


Comments

No comments still posted

Powered by 10 Hamsters v2-svn -|- Page Generated In 0.041377 secs.
-|- RSS Feed -|- Feed Info
Theme By: Nikkbu