Champion | Goldstone | Black Site Delta
[Login] or [Signup]
Login
Username:
Password:
[Signup]
[Recover Account]


Poll


You must be logged in to view polls



Torrent Details For "Tulip Fever (2017) WEB-DL 720p x264 AAC 850MB - MkvCage "

Tulip Fever (2017) WEB-DL 720p x264 AAC 850MB - MkvCage

Download this torrent | Magnet Download
Health:
Seeds: 0
Leechers: 0
Completed:
Last Checked: 14-11-2017 04:20:13
External Torrent
Update Stats
Download Magnet


Poster


iMDB
Imdb Picture Title: Tulip Fever
Year: 2017
Runtime: 105 minutes
Votes: 2291
Rating: 6.3/10
Language: English
Country: UK, USA
All Genres: Drama, Romance
Plot Outline: An artist falls for a young married woman while he's commissioned to paint her portrait during the Tulip mania of 17th century Amsterdam.
Director: Justin Chadwick
Writing By: Deborah Moggach,Tom Stoppard,Deborah Moggach,
Produced By: Maria Cestone,Justin Chadwick,Molly Conners,David Glasser,Richard Hewitt,Sarah E. Johnson,Laurie MacDonald,Alison Owen,Walter F. Parkes,Patrick Thompson,Paul Trijbits,Faye Ward,Bob Weinstein,Harvey Weinstein,Christopher Woodrow,
Music: Danny Elfman
Cast:
Alicia Vikander as Sophia Sandvoort
Dane DeHaan as Jan van Loos
Jack O'Connell as Willem Brok
Holliday Grainger as Maria
Tom Hollander as Dr Sorgh
Matthew Morrison as Mattheus
Kevin McKidd as Johan De Bye
Douglas Hodge as Nicholas Steen
Joanna Scanlan as Mrs Overvalt
Zach Galifianakis as Gerrit
Trailers:
Official Trailer
Official Trailer


Watch-Free-HD     Download

Details
Name:Tulip Fever (2017) WEB-DL 720p x264 AAC 850MB - MkvCage
Description:
 



   Format                                   : Matroska
   Format version                           : Version 4 / Version 2
   File size                                : 852 MiB
   Duration                                 : 1 h 44 min
   Overall bit rate                         : 1 136 kb/s
   Movie name                               : Tulip.Fever.2017.720p.WEB-DL.850MB.MkvCage
   Encoded date                             : UTC 2017-11-14 00:43:52
   Writing application                      : mkvmerge v9.7.1 ('Pandemonium') 64bit
   Writing library                          : libebml v1.3.4 + libmatroska v1.4.5
   
   Video
   ID                                       : 2
   Format                                   : AVC
   Format/Info                              : Advanced Video Codec
   Format profile                           : [email protected].1
   Format settings, CABAC                   : Yes
   Format settings, ReFrames                : 5 frames
   Codec ID                                 : V_MPEG4/ISO/AVC
   Duration                                 : 1 h 44 min
   Bit rate                                 : 1 071 kb/s
   Width                                    : 1 280 pixels
   Height                                   : 536 pixels
   Display aspect ratio                     : 2.40:1
   Frame rate mode                          : Constant
   Frame rate                               : 24.000 FPS
   Color space                              : YUV
   Chroma subsampling                       : 4:2:0
   Bit depth                                : 8 bits
   Scan type                                : Progressive
   Bits/(Pixel*Frame)                       : 0.065
   Stream size                              : 802 MiB (94%)
   Writing library                          : x264 core 148 r2708 86b7198
   Encoding settings                        : cabac=1 / ref=5 / deblock=1:0:0 / analyse=0x3:0x113 / me=umh / subme=8 / psy=1 / psy_rd=1.00:0.00 / mixed_ref=1 / me_range=16 / chroma_me=1 / trellis=1 / 8x8dct=1 / cqm=0 / deadzone=21,11 / fast_pskip=1 / chroma_qp_offset=-2 / threads=17 / lookahead_threads=2 / sliced_threads=0 / nr=0 / decimate=1 / interlaced=0 / bluray_compat=0 / constrained_intra=0 / bframes=3 / b_pyramid=2 / b_adapt=2 / b_bias=0 / direct=3 / weightb=1 / open_gop=0 / weightp=2 / keyint=240 / keyint_min=24 / scenecut=40 / intra_refresh=0 / rc_lookahead=50 / rc=2pass / mbtree=1 / bitrate=1071 / ratetol=1.0 / qcomp=0.60 / qpmin=0 / qpmax=69 / qpstep=4 / cplxblur=20.0 / qblur=0.5 / vbv_maxrate=62500 / vbv_bufsize=78125 / nal_hrd=none / filler=0 / ip_ratio=1.40 / aq=1:1.00
   Default                                  : Yes
   Forced                                   : No
   Color range                              : Limited
   Color primaries                          : BT.709
   Transfer characteristics                 : BT.709
   Matrix coefficients                      : BT.709
   
   Audio
   ID                                       : 1
   Format                                   : AAC
   Format/Info                              : Advanced Audio Codec
   Format profile                           : HE-AAC / LC
   Codec ID                                 : A_AAC
   Duration                                 : 1 h 44 min
   Bit rate                                 : 63.9 kb/s
   Channel(s)                               : 2 channels
   Channel positions                        : Front: L R
   Sampling rate                            : 48.0 kHz / 24.0 kHz
   Frame rate                               : 23.438 FPS (1024 spf)
   Compression mode                         : Lossy
   Delay relative to video                  : 31 ms
   Stream size                              : 47.9 MiB (6%)
   Language                                 : English
   Default                                  : Yes
   Forced                                   : No


 
Category:Movies > WEB-HD
Lang:English  English
Total Size:851.72 MB
Info Hash:08241790dfc9446267b7f67348b709fce001e07e
Added By:Shrawankk
Date Added:14-11-2017 04:20:13
Views:187
Hits:20

Download Torrent

Ratings:Not Yet Rated (Log in to rate it)


Tracker:
http://bigfoot1942.sektori.org:6969/announce

This Torrent also has backup trackers
URLSeedersLeechersCompleted
http://bigfoot1942.sektori.org:6969/announce000
http://tracker2.wasabii.com.tw:6969/announce000
http://tracker.opentrackr.org/announce000
http://announce.torrentsmd.com:6969/announce000
http://tracker.trackerfix.com/announce000
http://tracker.opentrackr.org/announce000


File List: 


Comments

No comments still posted

Powered by 10 Hamsters v2-svn -|- Page Generated In 0.336159 secs.
-|- RSS Feed -|- Feed Info
Theme By: Nikkbu