Więcej / Download | Więcej / Download | Więcej / Download
[Login] or [Signup]
Login
Username:
Password:
[Signup]
[Recover Account]


Poll


You must be logged in to view polls



Torrent Details For "Logan Lucky (2017) 720p WEB-DL x264 AAC 950MB - MkvCage "

Logan Lucky (2017) 720p WEB-DL x264 AAC 950MB - MkvCage

Download this torrent | Magnet Download
Health:
Seeds: 4,015
Leechers: 13,420
Completed: 9,047 
Last Checked: 14-11-2017 14:27:40
External Torrent
Update Stats
Download Magnet


Poster


iMDB
Imdb Picture Title: Logan Lucky
Year: 2017
Runtime: 118 minutes
Votes: 11217
Rating: 7.4/10
Language: English
Country: USA
All Genres: Comedy, Crime, Drama
Plot Outline: Two brothers attempt to pull off a heist during a NASCAR race in North Carolina.
Tagline: See How The Other Half Steals
Director: Steven Soderbergh
Writing By: Rebecca Blunt,
Produced By: Reid Carolin,Dan Fellman,Gregory Jacobs,Mark Johnson,Ken Meyer,Michael Polaire,Zane Stoddard,Matt Summers,Channing Tatum,
Music: David Holmes
Cast:
Farrah Mackenzie as Sadie Logan
Channing Tatum as Jimmy Logan
Jim O'Heir as Cal
Riley Keough as Mellie Logan
Rebecca Koon as Purple Lady
Katie Holmes as Bobbie Jo Chapman
Boden Johnston as Dylan Chapman
Sutton Johnston as Levi Chapman
David Denman as Moody Chapman
Charles Halford as Earl
Trailers:
UK Trailer
Official Trailer


Watch-Free-HD     Download

Details
Name:Logan Lucky (2017) 720p WEB-DL x264 AAC 950MB - MkvCage
Description:
Logan Lucky (2017) 720p WEB-DL x264 AAC 950MB - MkvCage

 



   Format                                   : Matroska
   Format version                           : Version 4 / Version 2
   File size                                : 953 MiB
   Duration                                 : 1 h 59 min
   Overall bit rate                         : 1 119 kb/s
   Movie name                               : Logan.Lucky.2017.720p.WEB-DL.950MB.MkvCage
   Encoded date                             : UTC 2017-11-14 09:04:47
   Writing application                      : mkvmerge v16.0.0 ('Protest') 64-bit
   Writing library                          : libebml v1.3.5 + libmatroska v1.4.8
   
   Video
   ID                                       : 2
   Format                                   : AVC
   Format/Info                              : Advanced Video Codec
   Format profile                           : [email protected]
   Format settings, CABAC                   : Yes
   Format settings, ReFrames                : 8 frames
   Codec ID                                 : V_MPEG4/ISO/AVC
   Duration                                 : 1 h 59 min
   Bit rate                                 : 1 053 kb/s
   Width                                    : 1 280 pixels
   Height                                   : 536 pixels
   Display aspect ratio                     : 2.40:1
   Frame rate mode                          : Constant
   Frame rate                               : 23.976 (24000/1001) FPS
   Color space                              : YUV
   Chroma subsampling                       : 4:2:0
   Bit depth                                : 8 bits
   Scan type                                : Progressive
   Bits/(Pixel*Frame)                       : 0.064
   Stream size                              : 897 MiB (94%)
   Writing library                          : x264 core 148 r2708 86b7198
   Encoding settings                        : cabac=1 / ref=8 / deblock=1:0:0 / analyse=0x3:0x133 / me=umh / subme=9 / psy=1 / psy_rd=1.00:0.00 / mixed_ref=1 / me_range=16 / chroma_me=1 / trellis=2 / 8x8dct=1 / cqm=0 / deadzone=21,11 / fast_pskip=1 / chroma_qp_offset=-2 / threads=17 / lookahead_threads=1 / sliced_threads=0 / nr=0 / decimate=1 / interlaced=0 / bluray_compat=0 / constrained_intra=0 / bframes=3 / b_pyramid=2 / b_adapt=2 / b_bias=0 / direct=3 / weightb=1 / open_gop=0 / weightp=2 / keyint=240 / keyint_min=24 / scenecut=40 / intra_refresh=0 / rc_lookahead=60 / rc=2pass / mbtree=1 / bitrate=1053 / ratetol=1.0 / qcomp=0.60 / qpmin=0 / qpmax=69 / qpstep=4 / cplxblur=20.0 / qblur=0.5 / vbv_maxrate=62500 / vbv_bufsize=78125 / nal_hrd=none / filler=0 / ip_ratio=1.40 / aq=1:1.00
   Default                                  : Yes
   Forced                                   : No
   Color range                              : Limited
   Color primaries                          : BT.709
   Transfer characteristics                 : BT.709
   Matrix coefficients                      : BT.709
   
   Audio
   ID                                       : 1
   Format                                   : AAC
   Format/Info                              : Advanced Audio Codec
   Format profile                           : HE-AAC / LC
   Codec ID                                 : A_AAC
   Duration                                 : 1 h 59 min
   Bit rate                                 : 64.0 kb/s
   Channel(s)                               : 2 channels
   Channel positions                        : Front: L R
   Sampling rate                            : 48.0 kHz / 24.0 kHz
   Frame rate                               : 23.438 FPS (1024 spf)
   Compression mode                         : Lossy
   Delay relative to video                  : 31 ms
   Stream size                              : 54.5 MiB (6%)
   Language                                 : English
   Default                                  : Yes
   Forced                                   : No
   
   Text
   ID                                       : 3
   Format                                   : UTF-8
   Codec ID                                 : S_TEXT/UTF8
   Codec ID/Info                            : UTF-8 Plain Text
   Duration                                 : 1 h 53 min
   Bit rate                                 : 67 b/s
   Count of elements                        : 1432
   Stream size                              : 56.2 KiB (0%)
   Language                                 : English
   Default                                  : Yes
   Forced                                   : No

 
Category:Movies > WEB-HD
Lang:English  English
Total Size:953.22 MB
Info Hash:ed367463e96e18e1924d0dd7934d7a993d1970cb
Added By:Shrawankk
Date Added:14-11-2017 13:18:19
Views:81
Hits:18

Download Torrent

Ratings:Not Yet Rated (Log in to rate it)


Tracker:
http://bigfoot1942.sektori.org:6969/announce

This Torrent also has backup trackers
URLSeedersLeechersCompleted
http://bigfoot1942.sektori.org:6969/announce000
http://tracker2.wasabii.com.tw:6969/announce000
http://tracker.opentrackr.org/announce000
http://announce.torrentsmd.com:6969/announce000
http://tracker.trackerfix.com/announce000
http://tracker.opentrackr.org/announce000


File List: 


Comments

No comments still posted

Powered by 10 Hamsters v2-svn -|- Page Generated In 0.300519 secs.
-|- RSS Feed -|- Feed Info
Theme By: Nikkbu