Black Eagle | Kung Fu Panda ... | Assassination Games
[Login] or [Signup]
Login
Username:
Password:
[Signup]
[Recover Account]


Poll


You must be logged in to view polls



Torrent Details For "Shankara (2017) Hindi Dubbed 720p WEBHD x264 AAC - 900MB - Movcr Exclusive"

Shankara (2017) Hindi Dubbed 720p WEBHD x264 AAC - 900MB - Movcr Exclusive

Download this torrent | Magnet Download
Health:
Seeds: 110
Leechers: 39
Completed: 3,586 
Last Checked: 12-01-2018 20:30:07
External Torrent
Update Stats
Download Magnet


Poster


iMDB
Imdb Picture Title: Shankara
Year: 2016
Runtime: 142 minutes
Votes: 13
Rating: 5.6/10
Language: Telugu
Country: India
All Genres: Crime
Plot Outline: A college student unwittingly takes part in a crime that changes the course of his life.
Director: Thathineni Satya Prakash
Writing By: Bayyavarapu Ravi,
Produced By: K.S. Rama Rao,
Music: Sai Karthik
Cast:
Regina Cassandra as
Hazel Croney as
Rajiv Kanakala as
M.S. Narayana as
Pragathi as
Aahuthi Prasad as
Nara Rohith as
John Vijay as


Watch-Free-HD     Download

Details
Name:Shankara (2017) Hindi Dubbed 720p WEBHD x264 AAC - 900MB - Movcr Exclusive
Description:
Shankara (2017) Hindi Dubbed 720p WEBHD x264 AAC - 900MB - Movcr Exclusive

 http://www.imdb.com/title/tt3740118/

 
General
Complete name                            : www.movcr.com - Shankara (2017) Hindi Dubbed 720p WEBHD x264 AAC - 900MB - Movcr Exclusive.mkv
Format                                   : Matroska
Format version                           : Version 4 / Version 2
File size                                : 884 MiB
Duration                                 : 1 h 54 min
Overall bit rate                         : 1 080 kb/s
Encoded date                             : UTC 2018-01-06 04:25:28
Writing application                      : mkvmerge v17.0.0 ('Be Ur Friend') 64-bit
Writing library                          : libebml v1.3.5 + libmatroska v1.4.8

Video
ID                                       : 1
Format                                   : AVC
Format/Info                              : Advanced Video Codec
Format profile                           : [email protected]
Format settings                          : CABAC / 3 Ref Frames
Format settings, CABAC                   : Yes
Format settings, RefFrames               : 3 frames
Codec ID                                 : V_MPEG4/ISO/AVC
Duration                                 : 1 h 54 min
Bit rate                                 : 952 kb/s
Width                                    : 1 280 pixels
Height                                   : 720 pixels
Display aspect ratio                     : 16:9
Frame rate mode                          : Constant
Frame rate                               : 25.000 FPS
Color space                              : YUV
Chroma subsampling                       : 4:2:0
Bit depth                                : 8 bits
Scan type                                : Progressive
Bits/(Pixel*Frame)                       : 0.041
Stream size                              : 780 MiB (88%)
Title                                    : www.movcr.com
Default                                  : Yes
Forced                                   : No
Color range                              : Limited
Color primaries                          : BT.709
Transfer characteristics                 : BT.709
Matrix coefficients                      : BT.709

Audio
ID                                       : 2
Format                                   : AAC
Format/Info                              : Advanced Audio Codec
Format profile                           : LC
Codec ID                                 : A_AAC-2
Duration                                 : 1 h 54 min
Bit rate                                 : 126 kb/s
Channel(s)                               : 2 channels
Channel positions                        : Front: L R
Sampling rate                            : 44.1 kHz
Frame rate                               : 43.066 FPS (1024 SPF)
Compression mode                         : Lossy
Stream size                              : 103 MiB (12%)
Title                                    : www.movcr.com
Language                                 : Hindi
Default                                  : Yes
Forced                                   : No


 
 
 
 
 
 
 
 
Category:Movies > South Dub
Lang:Hindi
Total Size:884.13 MB
Info Hash:fc3fb7773957e33d5b78a51debd8ca18d1bca717
Added By:MAZE
Date Added:05-01-2018 14:34:48
Views:3,982
Hits:389

Download Torrent

Ratings:Not Yet Rated (Log in to rate it)


Tracker:
udp://tracker.openbittorrent.com:80/announce


File List: 


Comments

No comments still posted

Powered by 10 Hamsters v2-svn -|- Page Generated In 1.525623 secs.
-|- RSS Feed -|- Feed Info
Theme By: Nikkbu