Street Fighter II V | Shakugan no Shana II | Strike Witches
[Login] or [Signup]
Login
Username:
Password:
[Signup]
[Recover Account]


Poll


You must be logged in to view polls



Torrent Details For "Jigsaw 2017 1080p WEB-DL DD 5.1 x264"

Jigsaw 2017 1080p WEB-DL DD 5.1 x264

Download this torrent | Magnet Download
Health:
Seeds: 195
Leechers: 71
Completed: 8,169 
Last Checked: 19-01-2018 19:20:59
External Torrent
Update Stats
Download Magnet


Poster


Watch-Free-HD     Download

Details
Name:Jigsaw 2017 1080p WEB-DL DD 5.1 x264
Description:



General
Format                      : Matroska
Format version              : Version 4 / Version 2
File size                   : 1.45 GiB
Duration                    : 1 h 31 min
Overall bit rate            : 2 263 kb/s

Video
ID                          : 1
Format                      : AVC
Format/Info                 : Advanced Video Codec
Format profile              : [email protected]
Format settings             : CABAC / 4 Ref Frames
Format settings, CABAC      : Yes
Format settings, ReFrames   : 4 frames
Codec ID                    : V_MPEG4/ISO/AVC
Duration                    : 1 h 31 min
Bit rate                    : 2 100 kb/s
Width                       : 1 900 pixels
Height                      : 796 pixels
Display aspect ratio        : 2.40:1
Frame rate mode             : Constant
Frame rate                  : 23.976 (24000/1001) FPS
Color space                 : YUV
Chroma subsampling          : 4:2:0
Bit depth                   : 8 bits
Scan type                   : Progressive
Bits/(Pixel*Frame)          : 0.058
Stream size                 : 1.29 GiB (89%)
Writing library             : x264 core 148 r2708 86b7198
Default                     : Yes
Forced                      : No

Audio
ID                          : 2
Format                      : AC-3
Format/Info                 : Audio Coding 3
Codec ID                    : A_AC3
Duration                    : 1 h 31 min
Bit rate mode               : Constant
Bit rate                    : 256 kb/s
Channel(s)                  : 6 channels
Channel positions           : Front: L C R, Side: L R, LFE
Sampling rate               : 48.0 kHz
Frame rate                  : 31.250 FPS (1536 SPF)
Bit depth                   : 16 bits
Compression mode            : Lossy
Stream size                 : 168 MiB (11%)
Language                    : English
Service kind                : Complete Main
Default                     : Yes
Forced                      : No





 
 
 
 
 
 
 
 
 
 

Category:Movies > HDRips
Lang:English  English
Total Size:1.45 GB
Info Hash:c7d49af49b347419e4abbc56deca29b170119a69
Added By:Freaky
Date Added:09-01-2018 15:44:38
Views:1,759
Hits:362

Download Torrent

Ratings:Not Yet Rated (Log in to rate it)


Tracker:
udp://tracker.coppersurfer.tk:6969/announce


File List: 


Comments

No comments still posted

Powered by 10 Hamsters v2-svn -|- Page Generated In 0.031279 secs.
-|- RSS Feed -|- Feed Info
Theme By: Nikkbu