[Login] or [Signup]
Login
Username:
Password:
[Signup]
[Recover Account]


Poll


You must be logged in to view polls



Torrent Details For "Second Nature 2017 720p WEB-DL DD 5.1 x264"

Second Nature 2017 720p WEB-DL DD 5.1 x264

Download this torrent | Magnet Download
Health:
Seeds: 84
Leechers: 197
Completed: 95 
Last Checked: 11-01-2018 18:18:31
External Torrent
Update Stats
Download Magnet


Poster
No poster


Watch-Free-HD     Download

Details
Name:Second Nature 2017 720p WEB-DL DD 5.1 x264
Description:

 

General
Format                      : Matroska
Format version              : Version 4 / Version 2
File size                   : 890 MiB
Duration                    : 1 h 20 min
Overall bit rate            : 1 553 kb/s

Video
ID                          : 1
Format                      : AVC
Format/Info                 : Advanced Video Codec
Format profile              : [email protected]
Format settings             : CABAC / 4 Ref Frames
Format settings, CABAC      : Yes
Format settings, ReFrames   : 4 frames
Codec ID                    : V_MPEG4/ISO/AVC
Duration                    : 1 h 20 min
Bit rate                    : 1 300 kb/s
Width                       : 1 280 pixels
Height                      : 720 pixels
Display aspect ratio        : 16:9
Frame rate mode             : Constant
Frame rate                  : 23.976 (24000/1001) FPS
Color space                 : YUV
Chroma subsampling          : 4:2:0
Bit depth                   : 8 bits
Scan type                   : Progressive
Bits/(Pixel*Frame)          : 0.059
Stream size                 : 742 MiB (83%)
Writing library             : x264 core 148 r2708 86b7198
Default                     : Yes
Forced                      : No

Audio
ID                          : 2
Format                      : AC-3
Format/Info                 : Audio Coding 3
Codec ID                    : A_AC3
Duration                    : 1 h 20 min
Bit rate mode               : Constant
Bit rate                    : 256 kb/s
Channel(s)                  : 6 channels
Channel positions           : Front: L C R, Side: L R, LFE
Sampling rate               : 48.0 kHz
Frame rate                  : 31.250 FPS (1536 SPF)
Bit depth                   : 16 bits
Compression mode            : Lossy
Stream size                 : 147 MiB (16%)
Language                    : English
Service kind                : Complete Main
Default                     : Yes
Forced                      : No




 http://pichub.site/image/Vily
 http://pichub.site/image/V8y0
 http://pichub.site/image/VALV
 http://pichub.site/image/VBFT
 http://pichub.site/image/VgdN
 http://pichub.site/image/VmGD

Category:Movies > HDRips
Lang:English  English
Total Size:890.01 MB
Info Hash:5cd32b9b2573167b25fca03ced6c16a372b5b213
Added By:Freaky
Date Added:11-01-2018 16:29:25
Views:218
Hits:22

Download Torrent

Ratings:Not Yet Rated (Log in to rate it)


Tracker:
http://ipv4.tracker.harry.lu/announce

This Torrent also has backup trackers
URLSeedersLeechersCompleted
http://ipv4.tracker.harry.lu/announce123418
http://ipv4.tracker.harry.lu:80/announce123418
http://tracker.electro-torrent.pl/announce000
http://tracker.electro-torrent.pl:80/announce000
http://retracker.mgts.by:80/announce8253
http://pt.lax.mx:80/announce000
http://tracker.torrentyorg.pl:80/announce000
http://163.172.180.68/announce123418
http://82.209.230.66/announce000
http://107.174.238.55:80/announce000
http://t.nyaatracker.com/announce7164
http://t.nyaatracker.com:80/announce7164


File List: 


Comments

No comments still posted

Powered by 10 Hamsters v2-svn -|- Page Generated In 0.003579 secs.
-|- RSS FEED
Theme By: Nikkbu