[Login] or [Signup]
Login
Username:
Password:
[Signup]
[Recover Account]


Poll


You must be logged in to view polls



Torrent Details For "Honeymoon (2018) Bengali Movie - HDRip[x264 - AAC3(5.1Ch)] - 450 MB"

Honeymoon (2018) Bengali Movie - HDRip[x264 - AAC3(5.1Ch)] - 450 MB

Download this torrent | Magnet Download
Health:
Seeds: 30
Leechers: 0
Completed: 41 
Last Checked: 14-04-2018 11:30:21
External Torrent
Update Stats
Download Magnet


Poster


Watch-Free-HD     Download

Details
Name:Honeymoon (2018) Bengali Movie - HDRip[x264 - AAC3(5.1Ch)] - 450 MB
Description:
Honeymoon (2018) Bengali Movie -
HDRip[x264 - AAC3(5.1Ch)] - 450 MB
 






General
Format                                   : Matroska
Format version                           : Version 2
File size                                : 450 MiB
Duration                                 : 2 h 16 min

Video
ID                                       : 1
Format                                   : AVC
Format/Info                              : Advanced Video Codec
Format profile                           : [email protected]
Format settings                          : CABAC / 4 Ref Frames
Format settings, CABAC                   : Yes
Format settings, RefFrames               : 4 frames
Codec ID                                 : V_MPEG4/ISO/AVC
Duration                                 : 2 h 16 min
Bit rate                                 : 395 kb/s
Width                                    : 560 pixels
Height                                   : 232 pixels
Display aspect ratio                     : 2.40:1
Frame rate mode                          : Constant
Frame rate                               : 25.000 FPS
Color space                              : YUV
Chroma subsampling                       : 4:2:0
Bit depth                                : 8 bits
Scan type                                : Progressive
Bits/(Pixel*Frame)                       : 0.122
Stream size                              : 386 MiB (86%)

Audio
ID                                       : 2
Format                                   : AAC
Format/Info                              : Advanced Audio Codec
Format profile                           : HE-AAC / LC
Format settings                          : Explicit
Codec ID                                 : A_AAC-2
Duration                                 : 2 h 16 min
Bit rate                                 : 63.8 kb/s
Channel(s)                               : 6 channels
Channel positions                        : Front: L C R, Side: L R, LFE
Sampling rate                            : 48.0 kHz
Stream size                              : 62.3 MiB (14%)          


Thumbnail




Category:Movies > Bengali
Lang:Bengali  Bengali
Total Size:449.65 MB
Info Hash:70f85ac9da6274802b1ba0cf7dff01e30db989b9
Added By:Pherarim
Date Added:11-04-2018 19:00:17
Views:208
Hits:16

Download Torrent

Ratings:Not Yet Rated (Log in to rate it)

  


Tracker:
udp://9.rarbg.me:2710/announce


File List: 


Comments

No comments still posted

Powered by 10 Hamsters v2-svn -|- Page Generated In 1.208884 secs.
-|- RSS Feed -|- Feed Info
Theme By: Nikkbu