[Login] or [Signup]
Login
Username:
Password:
[Signup]
[Recover Account]


Poll


You must be logged in to view polls



Torrent Details For "The Black Prince 2017 Hindi 720p WEB-DL x264 ESub [MW]"

The Black Prince 2017 Hindi 720p WEB-DL x264 ESub [MW]

Download this torrent | Magnet Download
Health:
Seeds: 1,001
Leechers: 955
Completed: 2,617 
Last Checked: 13-04-2018 04:38:37
External Torrent
Update Stats
Download Magnet


Poster


iMDB
Imdb Picture Title: The Black Prince
Year: 2017
Runtime: 118 minutes
Votes: 682
Rating: 7.6/10
Language: English, Panjabi
Country: UK, India, USA
All Genres: Drama, History
Plot Outline: 'The Black Prince' is a story of Queen Victoria and the Last King of Punjab, Maharajah Duleep Singh. His character as it evolves, torn between two cultures and facing constant dilemmas as a result. His relationship with Queen Victoria will be the most impactful relationship in the film, the Queen representing the English culture he was drawn into. The Black Prince begins a lifelong struggle to ...
Director: Kavi Raz
Writing By: Kavi Raz,
Produced By: Ashwani Chopra,Vikrant Chopra,Roger Christian,Travis Cloyd,Lina Dhingra,Sherry Hundal,Sherry Hundal,Jai Khanna,Kavi Raz,Jasjeet Singh,
Music: George Kallis
Cast:
Jason Flemyng as Dr. Login
Amanda Root as Queen Victoria
Shabana Azmi as Rani Jindan
David Essex as Colonel Hurbon
Joe Egan as Irish Rebel
Keith Duffy as Casey
Alexa Morden as Young Victoria
Leanne Joyce as Ada Wetherill
Kavi Raz as Beggar
Robert Deaton as Soldier


Watch-Free-HD     Download

Details
Name:The Black Prince 2017 Hindi 720p WEB-DL x264 ESub [MW]
Description:


 

General
Format                                   : Matroska
Format version                           : Version 4 / Version 2
File size                                : 975 MiB
Duration                                 : 2 h 0 min
Overall bit rate                         : 1 127 kb/s

Video
ID                                       : 1
Format                                   : AVC
Format/Info                              : Advanced Video Codec
Format profile                           : [email protected]
Format settings                          : CABAC / 4 Ref Frames
Format settings, CABAC                   : Yes
Format settings, RefFrames               : 4 frames
Codec ID                                 : V_MPEG4/ISO/AVC
Duration                                 : 2 h 0 min
Bit rate                                 : 1 000 kb/s
Width                                    : 1 280 pixels
Height                                   : 530 pixels
Display aspect ratio                     : 2.40:1
Frame rate mode                          : Constant
Frame rate                               : 24.000 FPS
Color space                              : YUV
Chroma subsampling                       : 4:2:0
Bit depth                                : 8 bits
Scan type                                : Progressive
Bits/(Pixel*Frame)                       : 0.061
Stream size                              : 862 MiB (88%)
Writing library                          : x264 core 155 r2893 b00bcaf
Default                                  : Yes
Forced                                   : No

Audio
ID                                       : 2
Format                                   : AAC
Format/Info                              : Advanced Audio Codec
Format profile                           : LC
Codec ID                                 : A_AAC-2
Duration                                 : 2 h 0 min
Bit rate                                 : 128 kb/s
Channel(s)                               : 2 channels
Channel positions                        : Front: L R
Sampling rate                            : 48.0 kHz
Frame rate                               : 46.875 FPS (1024 SPF)
Compression mode                         : Lossy
Stream size                              : 111 MiB (11%)
Language                                 : Hindi
Default                                  : Yes
Forced                                   : No

Text
ID                                       : 3
Format                                   : UTF-8
Codec ID                                 : S_TEXT/UTF8
Codec ID/Info                            : UTF-8 Plain Text
Duration                                 : 1 h 54 min
Bit rate                                 : 40 b/s
Count of elements                        : 1050
Stream size                              : 34.0 KiB (0%)
Language                                 : English
Default                                  : Yes
Forced                                   : Yes

Menu
00:00:00.000                             : en:1
00:02:08.042                             : en:2
00:10:31.042                             : en:3
00:21:08.000                             : en:4
00:31:38.000                             : en:5
00:41:15.000                             : en:6
00:51:05.000                             : en:7
01:01:25.000                             : en:8
01:10:48.042                             : en:9
01:20:27.000                             : en:10
01:31:13.000                             : en:11
01:40:15.042                             : en:12
01:48:59.042                             : en:13
01:56:11.000                             : en:14




             

Category:Movies > Bollywood
Lang:Hindi
Total Size:974.84 MB
Info Hash:921f25c2bf1f8ae4883743a805a197e9b2af2c35
Added By:Freaky
Date Added:12-04-2018 11:48:51
Views:2,858
Hits:341

Download Torrent

Ratings:Not Yet Rated (Log in to rate it)


Tracker:
udp://tracker.pirateparty.gr:6969/announce

This Torrent also has backup trackers
URLSeedersLeechersCompleted
http://tracker.vanitycore.co:6969/announce8874218
http://public.popcorn-tracker.org:6969/announce9280168


File List: 


Comments

No comments still posted

Powered by 10 Hamsters v2-svn -|- Page Generated In 2.591252 secs.
-|- RSS FEED
Theme By: Nikkbu