[Login] or [Signup]
Login
Username:
Password:
[Signup]
[Recover Account]


Poll


You must be logged in to view polls



Torrent Details For "Sesh Sangbad (Bangla Cinema) - HD Rip [x264 - AAC3(2Ch)] - 450 MB"

Sesh Sangbad (Bangla Cinema) - HD Rip [x264 - AAC3(2Ch)] - 450 MB

Download this torrent | Magnet Download
Health:
Seeds: 33
Leechers: 0
Completed: 17 
Last Checked: 15-04-2018 06:56:21
External Torrent
Update Stats
Download Magnet


Poster


Watch-Free-HD     Download

Details
Name:Sesh Sangbad (Bangla Cinema) - HD Rip [x264 - AAC3(2Ch)] - 450 MB
Description:
Sesh Sangbad (Bangla Cinema) - HD Rip
[x264 - AAC3(2Ch)] - 450 MB
 





General
Format                                   : Matroska
Format version                           : Version 2
File size                                : 450 MiB
Duration                                 : 2 h 23 min

Video
ID                                       : 1
Format                                   : AVC
Format/Info                              : Advanced Video Codec
Format profile                           : [email protected]
Format settings                          : CABAC / 4 Ref Frames
Format settings, CABAC                   : Yes
Format settings, RefFrames               : 4 frames
Codec ID                                 : V_MPEG4/ISO/AVC
Duration                                 : 2 h 23 min
Bit rate                                 : 374 kb/s
Width                                    : 560 pixels
Height                                   : 240 pixels
Display aspect ratio                     : 2.35:1
Frame rate mode                          : Constant
Frame rate                               : 25.000 FPS
Color space                              : YUV
Chroma subsampling                       : 4:2:0
Bit depth                                : 8 bits
Scan type                                : Progressive
Bits/(Pixel*Frame)                       : 0.111
Stream size                              : 383 MiB (85%)

Audio
ID                                       : 2
Format                                   : AAC
Format/Info                              : Advanced Audio Codec
Format profile                           : HE-AAC / LC
Format settings                          : Explicit
Codec ID                                 : A_AAC-2
Duration                                 : 2 h 23 min
Bit rate                                 : 64.0 kb/s
Channel(s)                               : 2 channels
Channel positions                        : Front: L R
Sampling rate                            : 48.0 kHz
Stream size                              : 65.5 MiB (15%)    

Thumbnail




Category:Movies > Bengali
Lang:Bengali  Bengali
Total Size:450.09 MB
Info Hash:300c3c93b8d94e8f7a20f77e083cd347f3bfe72c
Added By:Pherarim
Date Added:14-04-2018 11:13:49
Views:270
Hits:33

Download Torrent

Ratings:Not Yet Rated (Log in to rate it)

  


Tracker:
udp://9.rarbg.me:2710/announce


File List: 


Comments

No comments still posted

Powered by 10 Hamsters v2-svn -|- Page Generated In 1.036674 secs.
-|- RSS Feed -|- Feed Info
Theme By: Nikkbu