[Login] or [Signup]
Login
Username:
Password:
[Signup]
[Recover Account]


Poll


You must be logged in to view polls



Torrent Details For "Green Street 3 Never Back Down 2013 720p Esub BluRay Dual Audio English Hindi GOPISAHI"

Green Street 3 Never Back Down 2013 720p Esub BluRay Dual Audio English Hindi GOPISAHI

Download this torrent | Magnet Download
Health:
Seeds: 288
Leechers: 169
Completed: 940 
Last Checked: 16-04-2018 05:43:49
External Torrent
Update Stats
Download Magnet


Poster


iMDB
Imdb Picture Title: Green Street 3: Never Back Down
Year: 2013
Runtime: 93 minutes
Votes: 4533
Rating: 5.3/10
Language: English
Country: UK
All Genres: Action, Drama
Plot Outline: An old firm leader returns to Green Street for revenge after receiving a call that his little brother was killed, but is he able to cope with a new type of hooliganism and can he find his killer?
Director: James Nunn
Writing By: Ronnie Thompson,
Produced By: Simon Crowe,James Harris,Ben Jacques,Mark Lane,Christos Michaels,Nicola Pearcey,Ronnie Thompson,
Music: Paul Arnold Andrew Barnabas
Cast:
Scott Adkins as Danny
Kacey Clarke as Molly
Joey Ansah as DCI Victor Jones
Jack Doolan as Gilly
Josh Myers as Big John
Mark Wingett as Pistol Pete
Roberta Taylor as Lizzie
Spencer Wilding as Mason
George Russo as Tony
Billy Cook as Joey
Trailers:
Green Street Hooligans: Underground
Green Street Hooligans: Underground


Watch-Free-HD     Download

Details
Name:Green Street 3 Never Back Down 2013 720p Esub BluRay Dual Audio English Hindi GOPISAHI
Description:

Format                         : Matroska
Format version                 : Version 4 / Version 2
File size                      : 586 MiB
Duration                       : 1 h 33 min
Overall bit rate               : 879 kb/s
Movie name                     : Green Street 3  Never Back Down 2013 GOPISAHI

Video
Format                         : AVC
Codec ID                       : V_MPEG4/ISO/AVC
Duration                       : 1 h 33 min
Bit rate                       : 700 kb/s
Width                          : 1 280 pixels
Height                         : 544 pixels
Display aspect ratio           : 2.35:1
Frame rate mode                : Constant
Frame rate                     : 24.000 FPS
Stream size                    : 467 MiB (80%)
Title                          : GOPISAHI
Writing library                : x264 core 155 r2893 b00bcaf
Language                       : English

Audio #1
Format                         : AAC
Duration                       : 1 h 30 min
Bit rate                       : 91.8 kb/s
Channel(s)                     : 6 channels
Channel positions              : Front: L C R, Side: L R, LFE
Sampling rate                  : 44.1 kHz
Frame rate                     : 43.066 FPS (1024 SPF)
Compression mode               : Lossy
Stream size                    : 59.4 MiB (10%)
Title                          : GOPISAHI
Language                       : Hindi

Audio #2
Format                         : AAC
Duration                       : 1 h 33 min
Bit rate                       : 86.9 kb/s
Channel(s)                     : 6 channels
Channel positions              : Front: L C R, Side: L R, LFE
Sampling rate                  : 44.1 kHz
Frame rate                     : 43.066 FPS (1024 SPF)
Compression mode               : Lossy
Stream size                    : 58.0 MiB (10%)
Title                          : GOPISAHI
Language                       : English

Text
Language                       : English


Category:Movies > Hollywood Dub
Lang:Hindi
Total Size:586.21 MB
Info Hash:d4a23c9bb35e4d0c983d253d5586c19ca18c7138
Added By:gopisahi
Date Added:15-04-2018 03:28:13
Views:951
Hits:95

Download Torrent

Ratings:Not Yet Rated (Log in to rate it)


Tracker:
udp://9.rarbg.com:2740/announce


File List: 


Comments

No comments still posted

Powered by 10 Hamsters v2-svn -|- Page Generated In 0.277788 secs.
-|- RSS FEED
Theme By: Nikkbu