[Login] or [Signup]
Login
Username:
Password:
[Signup]
[Recover Account]


Poll


You must be logged in to view polls



Torrent Details For "Eken Babu (Bengali) - 1CD - Detective Web Series Rip[x264 - AAC3(5.1Ch)]"

Eken Babu (Bengali) - 1CD - Detective Web Series Rip[x264 - AAC3(5.1Ch)]

Download this torrent | Magnet Download
Health:
Seeds: 22
Leechers: 11
Completed:
Last Checked: 15-04-2018 06:27:13
External Torrent
Update Stats
Download Magnet


Poster


Watch-Free-HD     Download

Details
Name:Eken Babu (Bengali) - 1CD - Detective Web Series Rip[x264 - AAC3(5.1Ch)]
Description:
Eken Babu (Bengali) - 1CD - Detective
Web Series Rip[x264 - AAC3(5.1Ch)]
 





General
Format                                   : Matroska
Format version                           : Version 2
File size                                : 697 MiB
Duration                                 : 3 h 40 min

Video
ID                                       : 1
Format                                   : AVC
Format/Info                              : Advanced Video Codec
Format profile                           : [email protected]
Format settings                          : CABAC / 4 Ref Frames
Format settings, CABAC                   : Yes
Format settings, RefFrames               : 4 frames
Codec ID                                 : V_MPEG4/ISO/AVC
Duration                                 : 3 h 40 min
Bit rate                                 : 377 kb/s
Width                                    : 560 pixels
Height                                   : 304 pixels
Display aspect ratio                     : 1.85:1
Frame rate mode                          : Constant
Frame rate                               : 25.000 FPS
Color space                              : YUV
Chroma subsampling                       : 4:2:0
Bit depth                                : 8 bits
Scan type                                : Progressive
Bits/(Pixel*Frame)                       : 0.089
Stream size                              : 593 MiB (85%)

Audio
ID                                       : 2
Format                                   : AAC
Format/Info                              : Advanced Audio Codec
Format profile                           : HE-AAC / LC
Format settings                          : Explicit
Codec ID                                 : A_AAC-2
Duration                                 : 3 h 40 min
Bit rate                                 : 63.8 kb/s
Channel(s)                               : 6 channels
Channel positions                        : Front: L C R, Side: L R, LFE
Sampling rate                            : 48.0 kHz
Stream size                              : 100 MiB (14%)      

Thumbnail




Category:Movies > Bengali
Lang:Bengali  Bengali
Total Size:696.72 MB
Info Hash:0e73db1dc4cac080d9c7f356b99d1f6284721de9
Added By:Pherarim
Date Added:15-04-2018 06:24:13
Views:236
Hits:31

Download Torrent

Ratings:Not Yet Rated (Log in to rate it)

  


Tracker:
http://tracker.trackerfix.com:80/announce


File List: 


Comments

No comments still posted

Powered by 10 Hamsters v2-svn -|- Page Generated In 0.961909 secs.
-|- RSS Feed -|- Feed Info
Theme By: Nikkbu