[Login] or [Signup]
Login
Username:
Password:
[Signup]
[Recover Account]


Poll


You must be logged in to view polls



Torrent Details For "Learning to Drive 2014 720p Esub BluRay Dual Audio English Hindi GOPISAHI"

Learning to Drive 2014 720p Esub BluRay Dual Audio English Hindi GOPISAHI

Download this torrent | Magnet Download
Health:
Seeds: 0
Leechers: 0
Completed:
Last Checked: 15-04-2018 11:34:26
External Torrent
Update Stats
Download Magnet


Poster


iMDB
Imdb Picture Title: Learning to Drive
Year: 2014
Runtime: 90 minutes
Votes: 5915
Rating: 6.4/10
Language: English, French
Country: UK, USA
All Genres: Comedy, Drama, Romance
Plot Outline: As her marriage dissolves, a Manhattan writer takes driving lessons from a Sikh instructor with marriage troubles of his own. In each other's company they find the courage to get back on the road and the strength to take the wheel.
Tagline: It's never too late to begin a new adventure.
Director: Isabel Coixet
Writing By: Sarah Kernochan,
Produced By: Eleni Asvesta,Dana Friedman,Dan Halsted,Daniel Hammond,Gabriel Hammond,Susan Leber,Lauren McCarthy,Harry Patramanis,Jennifer Todd,
Music: Dhani Harrison Paul Hicks
Cast:
Patricia Clarkson as Wendy
Ben Kingsley as Darwan
Jake Weber as Ted
Sarita Choudhury as Jasleen
Grace Gummer as Tasha
Avi Nash as Preet
Samantha Bee as Debbie
Matt Salinger as Peter
John Hodgman as Car Salesman
Michael Mantell as Wendy's Dad
Trailers:
Learning to Drive
Trailer


Watch-Free-HD     Download

Details
Name:Learning to Drive 2014 720p Esub BluRay Dual Audio English Hindi GOPISAHI
Description:

Format                         : Matroska
Format version                 : Version 4 / Version 2
File size                      : 498 MiB
Duration                       : 1 h 29 min
Overall bit rate               : 777 kb/s
Movie name                     : Learning to Drive 2014 GOPISAHI

Video
Format                         : AVC
Codec ID                       : V_MPEG4/ISO/AVC
Duration                       : 1 h 29 min
Bit rate                       : 500 kb/s
Width                          : 1 280 pixels
Height                         : 692 pixels
Display aspect ratio           : 1.85:1
Frame rate mode                : Constant
Frame rate                     : 24.000 FPS
Stream size                    : 320 MiB (64%)
Title                          : GOPISAHI
Writing library                : x264 core 155 r2893 b00bcaf

Audio #1
Format                         : AAC
Duration                       : 1 h 29 min
Bit rate                       : 192 kb/s
Channel(s)                     : 6 channels
Channel positions              : Front: L C R, Side: L R, LFE
Sampling rate                  : 48.0 kHz / 24.0 kHz
Frame rate                     : 23.438 FPS (1024 SPF)
Compression mode               : Lossy
Delay relative to video        : 1 s 0 ms
Stream size                    : 123 MiB (25%)
Title                          : GOPISAHI
Language                       : English

Audio #2
Format                         : AAC
Duration                       : 1 h 29 min
Bit rate                       : 83.1 kb/s
Channel(s)                     : 6 channels
Channel positions              : Front: L C R, Side: L R, LFE
Sampling rate                  : 44.1 kHz
Frame rate                     : 43.066 FPS (1024 SPF)
Compression mode               : Lossy
Delay relative to video        : 11 ms
Stream size                    : 53.3 MiB (11%)
Title                          : GOPISAHI
Language                       : Hindi

Text
Language                       : English


Category:Movies > Hollywood Dub
Lang:Hindi
Total Size:498.29 MB
Info Hash:00d2627320773df2204a54f034533ddd511b7e51
Added By:gopisahi
Date Added:15-04-2018 11:34:26
Views:592
Hits:59

Download Torrent

Ratings:Not Yet Rated (Log in to rate it)


Tracker:
udp://9.rarbg.com:2740/announce


File List: 


Comments

No comments still posted

Powered by 10 Hamsters v2-svn -|- Page Generated In 0.275842 secs.
-|- RSS FEED
Theme By: Nikkbu