[Login] or [Signup]
Login
Username:
Password:
[Signup]
[Recover Account]


Poll


You must be logged in to view polls



Torrent Details For "Missing 2018 Hindi NEW 720p PreDVDRip x264 [MW]"

Missing 2018 Hindi NEW 720p PreDVDRip x264 [MW]

Download this torrent | Magnet Download
Health:
Seeds: 937
Leechers: 1,023
Completed: 1,641 
Last Checked: 16-04-2018 08:46:22
External Torrent
Update Stats
Download Magnet


Poster
No poster


Watch-Free-HD     Download

Details
Name:Missing 2018 Hindi NEW 720p PreDVDRip x264 [MW]
Description:

 


General
Format                                   : Matroska
Format version                           : Version 4 / Version 2
File size                                : 1.01 GiB
Duration                                 : 1 h 47 min
Overall bit rate                         : 1 336 kb/s

Video
ID                                       : 1
Format                                   : AVC
Format/Info                              : Advanced Video Codec
Format profile                           : [email protected]
Format settings                          : CABAC / 4 Ref Frames
Format settings, CABAC                   : Yes
Format settings, RefFrames               : 4 frames
Codec ID                                 : V_MPEG4/ISO/AVC
Duration                                 : 1 h 47 min
Bit rate                                 : 1 200 kb/s
Width                                    : 1 280 pixels
Height                                   : 608 pixels
Display aspect ratio                     : 2.105
Frame rate mode                          : Constant
Frame rate                               : 25.000 FPS
Color space                              : YUV
Chroma subsampling                       : 4:2:0
Bit depth                                : 8 bits
Scan type                                : Progressive
Bits/(Pixel*Frame)                       : 0.062
Stream size                              : 930 MiB (90%)
Writing library                          : x264 core 155 r2893 b00bcaf
Default                                  : Yes
Forced                                   : No

Audio
ID                                       : 2
Format                                   : AAC
Format/Info                              : Advanced Audio Codec
Format profile                           : LC
Codec ID                                 : A_AAC-2
Duration                                 : 1 h 47 min
Bit rate                                 : 128 kb/s
Channel(s)                               : 2 channels
Channel positions                        : Front: L R
Sampling rate                            : 48.0 kHz
Frame rate                               : 46.875 FPS (1024 SPF)
Compression mode                         : Lossy
Stream size                              : 98.7 MiB (10%)
Language                                 : Hindi
Default                                  : Yes
Forced                                   : No




             


Category:Movies > Bollywood
Lang:Hindi
Total Size:1.01 GB
Info Hash:5448631144824dd2e3c376e8b5e6b10c317ee1b3
Added By:Freaky
Date Added:15-04-2018 17:34:01
Views:1,753
Hits:137

Download Torrent

Ratings:Not Yet Rated (Log in to rate it)


Tracker:
udp://tracker.pirateparty.gr:6969/announce

This Torrent also has backup trackers
URLSeedersLeechersCompleted
http://tracker.vanitycore.co:6969/announce7683117
http://public.popcorn-tracker.org:6969/announce9695141


File List: 


Comments

No comments still posted

Powered by 10 Hamsters v2-svn -|- Page Generated In 0.867408 secs.
-|- RSS Feed -|- Feed Info
Theme By: Nikkbu