[Login] or [Signup]
Login
Username:
Password:
[Signup]
[Recover Account]


Poll


You must be logged in to view polls



Torrent Details For "Amazon Obhijaan (Bengali Movie) - 2CD - HDRip[x264 - AC3(5.1Ch)]"

Amazon Obhijaan (Bengali Movie) - 2CD - HDRip[x264 - AC3(5.1Ch)]

Download this torrent | Magnet Download
Health:
Seeds: 32
Leechers: 8
Completed:
Last Checked: 17-04-2018 14:48:33
External Torrent
Update Stats
Download Magnet


Poster


iMDB
Imdb Picture Title: Amazon Obhijaan
Year: 2017
Runtime: 140 minutes
Votes: 499
Rating: 6.4/10
Language: Bengali, Assamese, Hindi, Tamil, Telugu, Oriya
Country: India
All Genres: Action, Adventure, Thriller
Plot Outline: Amazon Obhijaan will see daredevil adventurer Shankar Choudhury traverse the length and breadth of South America, including the legendary Amazon in search of the mythical city of gold.
Tagline: Biggest Bengali Film
Director: Kamaleswar Mukherjee
Writing By: Kamaleswar Mukherjee,
Produced By: Andrez Castilho,Chic√£o Fill,Shrikant Mohta,Francisco Ramalho Jr.,Mahendra Soni,
Music: Debajyoti Mishra
Cast:
Dev as Shankar
David James as Marco Florian
Svetlana Gulakova as Anna Florian
Laboni Sarkar as Shankar's Mother
Tamal Ray Chowdhury as Shankar's Father
Eduardo Munniz as Ankoma
Roney Facchini as Dr. Ditmer
Marjorie Gerardi as Isabela
Felipe Montanari as Algusto Delgado
Eduardo Semerjian as Edgar Barret


Watch-Free-HD     Download

Details
Name:Amazon Obhijaan (Bengali Movie) - 2CD - HDRip[x264 - AC3(5.1Ch)]
Description:
Amazon Obhijaan (Bengali Movie) - 2CD -
HDRip[x264 - AC3(5.1Ch)]
 





General
Format                                   : Matroska
Format version                           : Version 2
File size                                : 1.40 GiB
Duration                                 : 2 h 39 min

Video
ID                                       : 1
Format                                   : AVC
Format/Info                              : Advanced Video Codec
Format profile                           : [email protected]
Format settings                          : CABAC / 4 Ref Frames
Format settings, CABAC                   : Yes
Format settings, RefFrames               : 4 frames
Codec ID                                 : V_MPEG4/ISO/AVC
Duration                                 : 2 h 39 min
Bit rate                                 : 1 069 kb/s
Width                                    : 640 pixels
Height                                   : 272 pixels
Display aspect ratio                     : 2.35:1
Frame rate mode                          : Constant
Frame rate                               : 25.000 FPS
Color space                              : YUV
Chroma subsampling                       : 4:2:0
Bit depth                                : 8 bits
Scan type                                : Progressive
Bits/(Pixel*Frame)                       : 0.246
Stream size                              : 1.19 GiB (85%)

Audio
ID                                       : 2
Format                                   : AC-3
Format/Info                              : Audio Coding 3
Codec ID                                 : A_AC3
Duration                                 : 2 h 39 min
Bit rate mode                            : Constant
Bit rate                                 : 192 kb/s
Channel(s)                               : 6 channels
Channel positions                        : Front: L C R, Side: L R, LFE
Sampling rate                            : 48.0 kHz
Stream size                              : 218 MiB (15%)  


Thumbnail




Category:Movies > Bengali
Lang:Bengali  Bengali
Total Size:1.40 GB
Info Hash:5c740f91f0f0fee46d8c775ad6497b870d6d4c92
Added By:Pherarim
Date Added:16-04-2018 09:11:06
Views:250
Hits:36

Download Torrent

Ratings:Not Yet Rated (Log in to rate it)

  


Tracker:
http://tracker.trackerfix.com:80/announce


File List: 


Comments

No comments still posted

Powered by 10 Hamsters v2-svn -|- Page Generated In 0.992192 secs.
-|- RSS Feed -|- Feed Info
Theme By: Nikkbu