[Login] or [Signup]
Login
Username:
Password:
[Signup]
[Recover Account]


Poll


You must be logged in to view polls



Torrent Details For "The Sword Identity 2011 720p Esub BluRay Dual Audio Hindi Korean GOPISAHI"

The Sword Identity 2011 720p Esub BluRay Dual Audio Hindi Korean GOPISAHI

Download this torrent | Magnet Download
Health:
Seeds: 0
Leechers: 0
Completed:
Last Checked: 16-04-2018 09:20:06
External Torrent
Update Stats
Download Magnet


Poster


iMDB
Imdb Picture Original Title: Wo kou de zong ji
Title: Sword Identity
Year: 2011
Runtime: 108 minutes
Votes: 438
Rating: 5.4/10
Language: Mandarin, English
Country: China
All Genres: Action
Plot Outline: During the Ming Dynasty one man will request a competition when his weapon is rejected. After a series of fights he is determined to prove his sword is invincible.
Tagline: A sword that was meant to be abandoned. A warrior that seeks to honor its legacy.
Director: Haofeng Xu
Writing By: Haofeng Xu,
Produced By: Rui Li,
Music: Yang Zhang
Cast:
Chenghui Yu as Master Qiu Dongyue
Yang Song as General Qi's Last Body Guard
Yuanyuan Zhao as Madam Qiu / Gai E
Ma Jun as Master Qie
Xu Fujing as Sai Lan
Ke Ma as Gan Gang
Zhexin Liu as General Liu Kai
Yao Weiping as Qi's Deputy Commander
Keqin Ou as Master Cai
Guisheng Li as Master Wang
Trailers:
The Sword Identity


Watch-Free-HD     Download

Details
Name:The Sword Identity 2011 720p Esub BluRay Dual Audio Hindi Korean GOPISAHI
Description:

Format                         : Matroska
Format version                 : Version 4 / Version 2
File size                      : 535 MiB
Duration                       : 1 h 50 min
Overall bit rate               : 678 kb/s
Movie name                     : The Sword Identity 2011 GOPISAHI

Video
Format                         : AVC
Codec ID                       : V_MPEG4/ISO/AVC
Duration                       : 1 h 50 min
Bit rate                       : 500 kb/s
Width                          : 1 280 pixels
Height                         : 694 pixels
Display aspect ratio           : 1.85:1
Frame rate mode                : Constant
Frame rate                     : 24.000 FPS
Stream size                    : 394 MiB (74%)
Title                          : GOPISAHI
Writing library                : x264 core 155 r2893 b00bcaf

Audio #1
Format                         : AAC
Duration                       : 1 h 50 min
Bit rate                       : 88.3 kb/s
Channel(s)                     : 6 channels
Channel positions              : Front: L C R, Side: L R, LFE
Sampling rate                  : 44.1 kHz
Frame rate                     : 43.066 FPS (1024 SPF)
Compression mode               : Lossy
Stream size                    : 69.6 MiB (13%)
Title                          : GOPISAHI
Language                       : Hindi

Audio #2
Format                         : AAC
Duration                       : 1 h 50 min
Bit rate                       : 87.3 kb/s
Channel(s)                     : 6 channels
Channel positions              : Front: L C R, Side: L R, LFE
Sampling rate                  : 44.1 kHz
Frame rate                     : 43.066 FPS (1024 SPF)
Compression mode               : Lossy
Stream size                    : 68.8 MiB (13%)
Title                          : GOPISAHI
Language                       : Chinese

Text
Language                       : English


Category:Movies > Hollywood Dub
Lang:Hindi
Total Size:534.79 MB
Info Hash:343885bcbe3aab6198bdd53dd4083745e25deb7e
Added By:gopisahi
Date Added:16-04-2018 09:20:06
Views:700
Hits:67

Download Torrent

Ratings:Not Yet Rated (Log in to rate it)


Tracker:
udp://9.rarbg.com:2740/announce


File List: 


Comments

No comments still posted

Powered by 10 Hamsters v2-svn -|- Page Generated In 0.315518 secs.
-|- RSS FEED
Theme By: Nikkbu