[Login] or [Signup]
Login
Username:
Password:
[Signup]
[Recover Account]


Poll


You must be logged in to view polls



Torrent Details For "Deadpool 2 (2018) 720p HDCam Dual Audio Eng-Hin x264 Aac Mp3"

Deadpool 2 (2018) 720p HDCam Dual Audio Eng-Hin x264 Aac Mp3

Download this torrent | Magnet Download
Health:
Seeds: 5
Leechers: 4
Completed: 41 
Last Checked: 21-05-2018 05:27:48
External Torrent
Update Stats
Download Magnet


Poster


iMDB
Imdb Picture Title: Deadpool 2
Year: 2018
Runtime: 119 minutes
Votes: 11154
Rating: 8.5/10
Language: English
Country: USA
All Genres: Action, Adventure, Comedy, Sci-Fi
Plot Outline: After surviving a near fatal bovine attack, a disfigured cafeteria chef (Wade Wilson) struggles to fulfill his dream of becoming Mayberry's hottest bartender while also learning to cope with his lost sense of taste. Searching to regain his spice for life, as well as a flux capacitor, Wade must battle ninjas, the Yakuza, and a pack of sexually aggressive canines, as he journeys around the world to discover the importance of family, friendship, and flavor - finding a new taste for adventure and earning the coveted coffee mug title of World's Best Lover. Written by Twentieth Century Fox


Tagline: Prepare for the second coming.
Director: David Leitch
Writing By: Rhett Reese,Paul Wernick,Ryan Reynolds,Rob Liefeld,Fabian Nicieza,
Produced By: Simon Kinberg,Stan Lee,Jonathon Komack Martin,Kelly McCormick,Rhett Reese,Ryan Reynolds,Lauren Shuler Donner,Ethan Smith,Aditya Sood,Paul Wernick,
Music: Tyler Bates
Cast:
Josh Brolin as Nathan Summers / Cable
Ryan Reynolds as Wade / Deadpool
Morena Baccarin as Vanessa
Zazie Beetz as Domino
Brianna Hildebrand as Negasonic Teenage Warhead
Brad Pitt as Vanisher
Bill SkarsgÄrd as Zeitgeist
T.J. Miller as Weasel
Terry Crews as Bedlam
Rob Delaney as Peter
Trailers:
The Final Trailer
Official Trailer
Deadpool, Meet Cable - Trailer
Official Teaser
Deadpool 2


Watch-Free-HD     Download

Details
Name:Deadpool 2 (2018) 720p HDCam Dual Audio Eng-Hin x264 Aac Mp3
Description:
Source                      : Over Net
Format                      : Matroska
Format version              : Version 4 / Version 2
File size                   : 917 MiB
Duration                    : 1 h 49 min
Overall bit rate mode       : Variable
Overall bit rate            : 1 171 kb/s
Encoded date                : UTC 2018-05-17 10:32:59
Writing application         : mkvmerge v8.1.0 ('Psychedelic Postcard') 32bit
Writing library             : libebml v1.3.1 + libmatroska v1.4.2

Video
ID                          : 1
Format                      : AVC
Format/Info                 : Advanced Video Codec
Format profile              : [email protected]
Format settings, CABAC      : Yes
Format settings, ReFrames   : 4 frames
Codec ID                    : V_MPEG4/ISO/AVC
Duration                    : 1 h 49 min
Bit rate                    : 938 kb/s
Width                       : 1 280 pixels
Height                      : 512 pixels
Display aspect ratio        : 2.500
Frame rate mode             : Constant
Frame rate                  : 29.970 (30000/1001) FPS
Color space                 : YUV
Chroma subsampling          : 4:2:0
Bit depth                   : 8 bits
Scan type                   : Progressive
Bits/(Pixel*Frame)          : 0.048
Stream size                 : 734 MiB (80%)
Writing library             : x264 core 155 r2901 7d0ff22
Language                    : English
Default                     : Yes
Forced                      : No

Audio #1
ID                          : 2
Format                      : AAC
Format/Info                 : Advanced Audio Codec
Format profile              : LC
Codec ID                    : A_AAC
Duration                    : 1 h 49 min
Bit rate                    : 140 kb/s
Channel(s)                  : 2 channels
Channel positions           : Front: L R
Sampling rate               : 48.0 kHz
Frame rate                  : 46.875 FPS (1024 spf)
Compression mode            : Lossy
Stream size                 : 109 MiB (12%)
Language                    : Hindi
Default                     : Yes
Forced                      : Yes

Audio #2
ID                          : 3
Format                      : MPEG Audio
Format version              : Version 1
Format profile              : Layer 3
Mode                        : Joint stereo
Mode extension              : MS Stereo
Codec ID                    : A_MPEG/L3
Codec ID/Hint               : MP3
Duration                    : 1 h 49 min
Bit rate mode               : Variable
Bit rate                    : 90.2 kb/s
Nominal bit rate            : 96.0 kb/s
Channel(s)                  : 2 channels
Sampling rate               : 48.0 kHz
Frame rate                  : 41.667 FPS (1152 spf)
Compression mode            : Lossy
Stream size                 : 70.6 MiB (8%)
Writing library             : LAME3.99r
Encoding settings           : -m j -V 4 -q 3 -lowpass 15.1 --abr 96
Language                    : English
Default                     : No
Forced                      : No

Screenshots:











Give Proper Credit To Olddilli Where Ever You Release

I Seed only 12 o clock in night Remain in morning after 12 o clock



Category:Movies > Pre-Releases
Lang:Hindi
Total Size:916.54 MB
Info Hash:e7c901286208abd18280594384c59902b5f5d921
Added By:Unknown
Date Added:17-05-2018 11:58:22
Views:650
Hits:119

Download Torrent

Ratings:Not Yet Rated (Log in to rate it)


Tracker:
udp://tracker.trackerfix.com:80/announce


File List: 


Comments

No comments still posted

Powered by 10 Hamsters v2-svn -|- Page Generated In 0.966367 secs.
-|- RSS FEED
Theme By: Nikkbu